Antika és Fidel36 oldala
Üdvözöllek az oldalon!

Az oldal teljes tartalmának megtekintéséhez regisztrációra van szükség.

Az oldalon minden teljesen ingyenes



 
HomeGy.I.K.RegisztrációBelépés
Ki van itt?
Jelenleg 13 felhasználó van itt :: 4 regisztrált, 0 rejtett és 9 vendég :: 1 Bot

almaro, anhxxx, missem, rollroy

A legtöbb felhasználó (84 fő) 2011-09-06, 22:35-kor volt itt.
Most active topic starters
rollroy
 
lasavn
 
tonyanh
 
anhxxx
 
titmit
 
joe204
 
pentium11
 
Marmax
 
SZIGO
 
almaro
 
Statistics
Összesen 44698 regisztrált felhasználónk van.
Legújabb regisztrált tagunk: tolmaiel

Jelenleg összesen 319980 hozzászólás olvasható. in 181356 subjects
Social bookmarking
Social bookmarking Digg  Social bookmarking Delicious  Social bookmarking Reddit  Social bookmarking Stumbleupon  Social bookmarking Slashdot  Social bookmarking Yahoo  Social bookmarking Google  Social bookmarking Blinklist  Social bookmarking Blogmarks  Social bookmarking Technorati  

Bookmark and share the address of antika és fidel36 oldala on your social bookmarking website

Bookmark and share the address of Antika és Fidel36 oldala on your social bookmarking website
Reklámok/Toplist
web site traffic statistics Flag Counter
Latest topics

Share | 
 

 Snowden (Snowden) 2016 DVDRip HUNDUB

Előző téma megtekintése Következő téma megtekintése Go down 
SzerzőÜzenet
bubus66

avatar

Nem : Male Hozzászólások száma : 1412
Születésnapod : 1966. Aug. 11.
Regisztrált: : 2014. Apr. 17.

TémanyitásTéma: Snowden (Snowden) 2016 DVDRip HUNDUB   2017-02-12, 13:31

Snowden (Snowden) 2016 DVDRip HUNDUB
színes, szinkronizált, német-amerikai életrajzi kalandfilm, 133 perc (12)

[You must be registered and logged in to see this image.]
[You must be registered and logged in to see this image.]

Stáb:
rendező: Oliver Stone
írta: Anatoly Kucherena, Luke Harding
forgatókönyvíró: Oliver Stone, Kieran Fitzgerald
producer: Moritz Borman, Eric Kopeloff, Philip Schulz-Deyle, Fernando Sulichin
ügyvezető producer: Max Arvelaiz, Michael Bassick, Douglas Hansen, José Ibáñez, Peter Lawson, Serge Lobo, Bahman Naraghi, Tom Ortenberg, James D. Stern, Christopher Woodrow
operatőr: Anthony Dod Mantle
zene: Craig Armstrong, Adam Peters
vágó: Alex Marquez, Lee Percy
Szereplő(k):

Joseph Gordon-Levitt (Edward Snowden)
Shailene Woodley (Lindsay Mills)
Scott Eastwood (Trevor)
Zachary Quinto (Glenn Greenwald)
Melissa Leo (Laura Poitras)
Tom Wilkinson (Ewen MacAskill)
Christy Meyer (Dr. Laurel)
Michael Benz (Martin)
Andrew Dits (Blake)
Demetri Goritsas (Frank Davini)
Robert Firth (Dr. Stilwell)
Patrick Joseph Byrnes (Timothy Lowell)
Nicolas Cage (Hank Forrester)
Timothy Olyphant (CIA ügynök)
Rhys Ifans (Corbin O'Brian)
Joely Richardson (Janine Gibson)
Anatoly Kucherena (orosz diplomata)
Ben Chaplin (Robert Tibbo)
Edward Snowden (önmaga)
Donald Trump (önmaga)
Tartalom:
Edward Snowden a hazáját akarta szolgálni. Egészségi állapota katonai karrierjének hamar véget vet, ám informatikusként helyet kap a titkosszolgálatnál. Itt aztán megdöbbentő felfedezést tesz: az amerikai kormány a világon bárkit képes megfigyelni, telefonokat hallgat le, e-maileket olvas el, még a laptopunk kameráin keresztül is képes megfigyelni saját otthonunkban. Snowden - aki szentül hisz a szabadságban és az Amerikai Egyesült Államokban - válaszút elé kerül: vagy ő is asszisztál a kormány illegálisnak vélt és etikátlan cselekedeteihez, vagy nyilvánosságra hozza mindazt amit megtudott és menekülni kényszerül.
General
Complete name : Snowden 2016 .mp4
Format : MPEG-4
Format profile : Base Media
Codec ID : isom (isom/iso2/avc1/mp41)
File size : 480 MiB
Duration : 2 h 13 min
Overall bit rate mode : Variable
Overall bit rate : 505 kb/s
Writing application : Lavf56.30.100

Video
ID : 1
Format : AVC
Format/Info : Advanced Video Codec
Format profile : High@L2.1
Format settings, CABAC : Yes
Format settings, ReFrames : 4 frames
Codec ID : avc1
Codec ID/Info : Advanced Video Coding
Duration : 2 h 13 min
Bit rate : 402 kb/s
Width : 624 pixels
Height : 256 pixels
Display aspect ratio : 2.40:1
Frame rate mode : Constant
Frame rate : 25.000 FPS
Color space : YUV
Chroma subsampling : 4:2:0
Bit depth : 8 bits
Scan type : Progressive
Bits/(Pixel*Frame) : 0.101
Stream size : 383 MiB (80%)
Writing library : x264

Audio
ID : 2
Format : AAC
Format/Info : Advanced Audio Codec
Format profile : LC
Codec ID : 40
Duration : 2 h 13 min
Bit rate mode : Variable
Bit rate : 96.0 kb/s
Maximum bit rate : 2 500 kb/s
Channel(s) : 2 channels
Channel positions : Front: L R
Sampling rate : 44.1 kHz
Frame rate : 43.066 FPS (1024 spf)
Compression mode : Lossy
Stream size : 91.4 MiB (19%)
Default : Yes
Alternate group : 1

[You must be registered and logged in to see this image.]
Kód:
https://data.hu/get/10312650/Snowden_2016_.001
https://data.hu/get/10312649/Snowden_2016_.002
https://data.hu/get/10312648/Snowden_2016_.003
https://data.hu/get/10312645/Snowden_2016_.004
https://data.hu/get/10312652/Snowden_2016_.005
https://data.hu/get/10312646/Snowden_2016_.crc

[You must be registered and logged in to see this image.]
Kód:
https://data.hu/get/10312647/Snowden_2016_.zip
Vissza az elejére Go down
http://androidapk.freewebhosts.pw/phpbb/
 
Snowden (Snowden) 2016 DVDRip HUNDUB
Előző téma megtekintése Következő téma megtekintése Vissza az elejére 
1 / 1 oldal

Permissions in this forum:Nem válaszolhatsz egy témára ebben a fórumban.
Antika és Fidel36 oldala :: --==LETÖLTÉSEK==-- :: Filmek :: DivX Hun Filmek-
Ugrás: