Antika és Fidel36 oldala
Üdvözöllek az oldalon!

Az oldal teljes tartalmának megtekintéséhez regisztrációra van szükség.

Az oldalon minden teljesen ingyenes



 
HomeGy.I.K.RegisztrációBelépés
Ki van itt?
Jelenleg 17 felhasználó van itt :: 5 regisztrált, 0 rejtett és 12 vendég

almaro, anhxxx, Marmax, missem, rollroy

A legtöbb felhasználó (84 fő) 2011-09-06, 04:35-kor volt itt.
Most active topic starters
rollroy
 
lasavn
 
tonyanh
 
anhxxx
 
titmit
 
joe204
 
pentium11
 
Marmax
 
SZIGO
 
almaro
 
Statistics
Összesen 44698 regisztrált felhasználónk van.
Legújabb regisztrált tagunk: tolmaiel

Jelenleg összesen 319979 hozzászólás olvasható. in 181355 subjects
Social bookmarking
Social bookmarking Digg  Social bookmarking Delicious  Social bookmarking Reddit  Social bookmarking Stumbleupon  Social bookmarking Slashdot  Social bookmarking Yahoo  Social bookmarking Google  Social bookmarking Blinklist  Social bookmarking Blogmarks  Social bookmarking Technorati  

Bookmark and share the address of antika és fidel36 oldala on your social bookmarking website

Bookmark and share the address of Antika és Fidel36 oldala on your social bookmarking website
Reklámok/Toplist
web site traffic statistics Flag Counter
Latest topics

Share | 
 

 Hannibál ébredése (Hannibal bredse) 2007 DVDRip

Előző téma megtekintése Következő téma megtekintése Go down 
SzerzőÜzenet
bubus66

avatar

Nem : Male Hozzászólások száma : 1412
Születésnapod : 1966. Aug. 11.
Regisztrált: : 2014. Apr. 16.

TémanyitásTéma: Hannibál ébredése (Hannibal bredse) 2007 DVDRip   2017-02-11, 19:24

Hannibál ébredése (Hannibal bredse) 2007 DVDRip
színes szinkronizált angol-cseh-francia-olasz thriller 131 perc (16)

[You must be registered and logged in to see this image.]
[You must be registered and logged in to see this image.]

Stáb:
Rendező: Peter Webber
Forgatókönyvíró: Thomas Harris
Zene: Ilan Eshkeri, Shigeru Umebayashi
Operatőr: Ben Davis
Producer: Tarak Ben Ammar, Dino De Laurentiis, Martha Schumacher
Látványtervező: Allan Starski
Jelmeztervező: Anna B. Sheppard
Vágó: Valerio Bonelli, Pietro Scalias

Szereplők:
Gaspard Ulliel (Hannibal Lecter)
Aaron Thomas (a fiatal Hannibal Lecter)
Li Gong (Lady Murasaki)
Helena Lia Tachovska (Mischa)
Dominic West (Popil felügyelő)
Rhys Ifans (Grutas)
Richard Brake (Enrikas Dortlich)
Michele Wade (Nanny)
Kevin McKidd (Petras Kolnas)

Tartalom:
A fiatal Hannibal Lecter (Aaron Thomas) szüleit a szeme láttára ölik meg, ahogy a kis húgát is. Párizsba kerül sógornője, Murasaki (Gong Li) segítségével, és orvosnak tanul. Rémálmait azonban nem tudja elfelejteni, és ahogy egyre nagyobb tudásra tesz szert Hannibal (Gaspard Ulliel), úgy hatalmasodik el benne a könyörtelen bosszúvágy. Popilfelügyelő (Dominic West) felfigyel rá, amikor különös kegyetlenséggel megölnek egy mészárost.
General
Complete name : Hannibál ébredése (Hannibal 2007.avi
Format : AVI
Format/Info : Audio Video Interleave
File size : 735 MiB
Duration : 1 h 56 min
Overall bit rate : 885 kb/s
Writing application : FairUse Wizard - [You must be registered and logged in to see this link.]
Writing library : VirtualDub build 28312/release

Video
ID : 0
Format : MPEG-4 Visual
Format settings, BVOP : 1
Format settings, QPel : No
Format settings, GMC : No warppoints
Format settings, Matrix : Default (H.263)
Muxing mode : Packed bitstream
Codec ID : DX50
Codec ID/Hint : DivX 5
Duration : 1 h 56 min
Bit rate : 780 kb/s
Nominal bit rate : 4 854 kb/s
Width : 640 pixels
Height : 352 pixels
Display aspect ratio : 16:9
Frame rate : 25.000 FPS
Color space : YUV
Chroma subsampling : 4:2:0
Bit depth : 8 bits
Scan type : Progressive
Compression mode : Lossy
Bits/(Pixel*Frame) : 0.138
Stream size : 647 MiB (88%)
Writing library : DivX 6.5.1 (UTC 2007-03)

Audio
ID : 1
Format : MPEG Audio
Format version : Version 1
Format profile : Layer 3
Mode : Joint stereo
Mode extension : Intensity Stereo + MS Stereo
Codec ID : 55
Codec ID/Hint : MP3
Duration : 1 h 55 min
Bit rate mode : Constant
Bit rate : 96.0 kb/s
Channel(s) : 2 channels
Sampling rate : 48.0 kHz
Compression mode : Lossy
Stream size : 79.6 MiB (11%)
Alignment : Split accross interleaves
Interleave, duration : 40 ms (1.00 video frame)
Interleave, preload duratio : 500 ms

[You must be registered and logged in to see this image.]
Kód:
https://data.hu/get/10307037/Hannibal_ebredese_Hannibal_2007.001
https://data.hu/get/10307036/Hannibal_ebredese_Hannibal_2007.002
https://data.hu/get/10307034/Hannibal_ebredese_Hannibal_2007.003
https://data.hu/get/10307035/Hannibal_ebredese_Hannibal_2007.004
https://data.hu/get/10307033/Hannibal_ebredese_Hannibal_2007.crc

[You must be registered and logged in to see this image.]
Kód:
https://data.hu/get/10307039/Hannibal_ebredese_Hannibal_2007.zip
Vissza az elejére Go down
http://androidapk.freewebhosts.pw/phpbb/
 
Hannibál ébredése (Hannibal bredse) 2007 DVDRip
Előző téma megtekintése Következő téma megtekintése Vissza az elejére 
1 / 1 oldal

Permissions in this forum:Nem válaszolhatsz egy témára ebben a fórumban.
Antika és Fidel36 oldala :: --==LETÖLTÉSEK==-- :: Filmek :: DivX Hun Filmek-
Ugrás: