Antika és Fidel36 oldala
Üdvözöllek az oldalon!

Az oldal teljes tartalmának megtekintéséhez regisztrációra van szükség.

Az oldalon minden teljesen ingyenes



 
HomeGy.I.K.RegisztrációBelépés
Ki van itt?
Jelenleg 15 felhasználó van itt :: 2 regisztrált, 0 rejtett és 13 vendég :: 2 Bots

rollroy, titmit

A legtöbb felhasználó (84 fő) 2011-09-06, 04:35-kor volt itt.
Most active topic starters
lasavn
 
rollroy
 
tonyanh
 
anhxxx
 
joe204
 
pentium11
 
titmit
 
Marmax
 
SZIGO
 
almaro
 
Statistics
Összesen 44000 regisztrált felhasználónk van.
Legújabb regisztrált tagunk: Linda2002

Jelenleg összesen 280416 hozzászólás olvasható. in 150993 subjects
Social bookmarking
Social bookmarking Digg  Social bookmarking Delicious  Social bookmarking Reddit  Social bookmarking Stumbleupon  Social bookmarking Slashdot  Social bookmarking Yahoo  Social bookmarking Google  Social bookmarking Blinklist  Social bookmarking Blogmarks  Social bookmarking Technorati  

Bookmark and share the address of antika és fidel36 oldala on your social bookmarking website

Bookmark and share the address of Antika és Fidel36 oldala on your social bookmarking website
Reklámok/Toplist
web site traffic statistics Flag Counter
Latest topics

Share | 
 

 I.Q.-A szerelem relatív(I.Q.)1994 DVDRip

Előző téma megtekintése Következő téma megtekintése Go down 
SzerzőÜzenet
bubus66

avatar

Nem : Male Hozzászólások száma : 1368
Születésnapod : 1966. Aug. 11.
Regisztrált: : 2014. Apr. 16.

TémanyitásTéma: I.Q.-A szerelem relatív(I.Q.)1994 DVDRip   2017-02-11, 19:18

I.Q.-A szerelem relatív(I.Q.)1994 DVDRip
Színes, magyarul beszélő, amerikai romantikus vígjáték 95 perc (12)

[You must be registered and logged in to see this image.]
[You must be registered and logged in to see this image.]

Stáb:
rendező:Fred Schepisi
író: Andy Breckman
forgatókönyvíró: Andy Breckman,
Michael Leeson
zeneszerző: Jerry Goldsmith
operatőr: Ian Baker
vágó: Jill Bilcock

Szereplők:
Meg Ryan (Catherine Boyd)
Tim Robbins (Ed Walters)
Walter Matthau (Albert Einstein)
Lou Jacobi (Kurt Gödel)
Gene Saks (Boris Podolsky)
Joseph Maher (Nathan Liebknecht)
Stephen Fry (James Moreland)
Tony Shalhoub (Bob Rosetti)
Charles Durning (Louis Bamberger)


Edward Walters autószerelő beleszeret az intelligens és szép Catherina Boydba (Meg Ryan). Szerelem ez első látásra. A gond csak az, hogy Catherina, a balfék James Moreland menyasszonya. Szerencsére a lány nagybátyja rögtön szívébe zárja az egyszerű, ámde szimpatikus fiút, és barátaival összefogva eléri, hogy Catherina beleszeressen Edbe. Mitől válik ez a történet komédiává? Chaterina nagybátyja nem más, mint Albert Einstein, aki köztudottan vicces zseni volt, hasonlóan Nathanhoz, Kurthoz és Borishoz, Einstein drága barátaihoz.

General
Complete name : IQ_-_A_szerelem_relativ\IQ_-_A_szerelem_relativ.avi
Format : AVI
Format/Info : Audio Video Interleave
File size : 701 MiB
Duration : 1 h 31 min
Overall bit rate : 1 067 kb/s
Writing application : MEncoder 1.0pre7try2-3.3.5
Writing library : MPlayer
Copyright : The DuNkerS Team

Video
ID : 0
Format : MPEG-4 Visual
Format profile : Simple@L1
Format settings, BVOP : No
Format settings, QPel : No
Format settings, GMC : No warppoints
Format settings, Matrix : Default (H.263)
Codec ID : XVID
Codec ID/Hint : XviD
Duration : 1 h 31 min
Bit rate : 870 kb/s
Width : 640 pixels
Height : 272 pixels
Display aspect ratio : 2.35:1
Frame rate : 25.000 FPS
Color space : YUV
Chroma subsampling : 4:2:0
Bit depth : 8 bits
Scan type : Progressive
Compression mode : Lossy
Bits/(Pixel*Frame) : 0.200
Stream size : 571 MiB (82%)
Writing library : FFmpeg0.4.9-pre1b4752

Audio
ID : 1
Format : AC-3
Format/Info : Audio Coding 3
Mode extension : CM (complete main)
Format settings, Endianness : Big
Codec ID : 2000
Duration : 1 h 31 min
Bit rate mode : Constant
Bit rate : 192 kb/s
Channel(s) : 2 channels
Channel positions : Front: L R
Sampling rate : 48.0 kHz
Frame rate : 31.250 FPS (1536 spf)
Bit depth : 16 bits
Compression mode : Lossy
Stream size : 126 MiB (18%)
Alignment : Split accross interleaves
Interleave, duration : 500 ms (12.50 video frames)
Interleave, preload duratio : 500 ms

[You must be registered and logged in to see this image.]
Kód:
https://data.hu/get/10305878/IQ_-_A_szerelem_relativ.001
https://data.hu/get/10305881/IQ_-_A_szerelem_relativ.002
https://data.hu/get/10305879/IQ_-_A_szerelem_relativ.003
https://data.hu/get/10305883/IQ_-_A_szerelem_relativ.004
https://data.hu/get/10305882/IQ_-_A_szerelem_relativ.crc

[You must be registered and logged in to see this image.]
Kód:
https://data.hu/get/10305880/IQ_-_A_szerelem_relativ.zip
Vissza az elejére Go down
http://androidapk.freewebhosts.pw/phpbb/
 
I.Q.-A szerelem relatív(I.Q.)1994 DVDRip
Előző téma megtekintése Következő téma megtekintése Vissza az elejére 
1 / 1 oldal

Permissions in this forum:Nem válaszolhatsz egy témára ebben a fórumban.
Antika és Fidel36 oldala :: --==LETÖLTÉSEK==-- :: Filmek :: DivX Hun Filmek-
Ugrás: