Antika és Fidel36 oldala
Üdvözöllek az oldalon!

Az oldal teljes tartalmának megtekintéséhez regisztrációra van szükség.

Az oldalon minden teljesen ingyenes



 
HomeGy.I.K.RegisztrációBelépés
Ki van itt?
Jelenleg 11 felhasználó van itt :: 2 regisztrált, 0 rejtett és 9 vendég :: 2 Bots

anhxxx, rollroy

A legtöbb felhasználó (84 fő) 2011-09-06, 04:35-kor volt itt.
Most active topic starters
lasavn
 
rollroy
 
tonyanh
 
anhxxx
 
titmit
 
joe204
 
pentium11
 
Marmax
 
SZIGO
 
almaro
 
Statistics
Összesen 44360 regisztrált felhasználónk van.
Legújabb regisztrált tagunk: surajkashyap1996

Jelenleg összesen 300585 hozzászólás olvasható. in 165758 subjects
Social bookmarking
Social bookmarking Digg  Social bookmarking Delicious  Social bookmarking Reddit  Social bookmarking Stumbleupon  Social bookmarking Slashdot  Social bookmarking Yahoo  Social bookmarking Google  Social bookmarking Blinklist  Social bookmarking Blogmarks  Social bookmarking Technorati  

Bookmark and share the address of antika és fidel36 oldala on your social bookmarking website

Bookmark and share the address of Antika és Fidel36 oldala on your social bookmarking website
Reklámok/Toplist
web site traffic statistics Flag Counter
Latest topics

Share | 
 

 A Bűbájos (The Good Witch) 2008 DvDRip XviD HUN

Előző téma megtekintése Következő téma megtekintése Go down 
SzerzőÜzenet
bubus66

avatar

Nem : Male Hozzászólások száma : 1390
Születésnapod : 1966. Aug. 11.
Regisztrált: : 2014. Apr. 16.

TémanyitásTéma: A Bűbájos (The Good Witch) 2008 DvDRip XviD HUN   2017-02-11, 19:11

A Bűbájos (The Good Witch) 2008 DvDRip XviD HUN
magyarul beszélő, kanadai családi film, 85 perc (12)

[You must be registered and logged in to see this image.]
[You must be registered and logged in to see this image.]

Stáb:
Rendező: Craig Pryce
Forgatókönyvíró: Rod Spence
Vágó: George Roulston
Szereplő(k):
Cassandra Nightingale: Catherine Bell
Jake Russell: Chris Potter
Martha: Catherine Disher
George O'Hanrahan: Peter MacNeill
Walter Cobb: Allan Royal

Tartalom:
A rendőrfőnök Jake Russell (Chris Potter), két fiú özvegy apja, beleesik új szomszédjába, Cassandrába (Catherine Bell), amikor az beköltözik a kísértetjárta Grey House-ba. Amikor azonban Cassandra megnyitja a Csengettyűk, Könyvek és Gyertyák nevű boszorkányboltját, a környék többi lakóját is el kell bűvölnie, akik meglehetősen fagyosan fogadják. Elég lesz-e ehhez csupán némi józan ész és furfang vagy komolyabb varázslathoz kell folyamodnia?

General
Complete name : A.bubajos.part3\A bűbájos.avi
Format : AVI
Format/Info : Audio Video Interleave
File size : 715 MiB
Duration : 1 h 24 min
Overall bit rate : 1 182 kb/s
Writing application : VirtualDubMod 1.5.10.2 (build 2540/release)
Writing library : VirtualDubMod build 2540/release

Video
ID : 0
Format : MPEG-4 Visual
Format profile : Advanced Simple@L5
Format settings, BVOP : 2
Format settings, QPel : No
Format settings, GMC : No warppoints
Format settings, Matrix : Default (H.263)
Muxing mode : Packed bitstream
Codec ID : XVID
Codec ID/Hint : XviD
Duration : 1 h 24 min
Bit rate : 1 045 kb/s
Width : 640 pixels
Height : 480 pixels
Display aspect ratio : 4:3
Frame rate : 25.000 FPS
Color space : YUV
Chroma subsampling : 4:2:0
Bit depth : 8 bits
Scan type : Progressive
Compression mode : Lossy
Bits/(Pixel*Frame) : 0.136
Stream size : 632 MiB (88%)
Writing library : XviD 1.0.3 (UTC 2004-12-20)

Audio
ID : 1
Format : MPEG Audio
Format version : Version 1
Format profile : Layer 3
Mode : Joint stereo
Mode extension : MS Stereo
Codec ID : 55
Codec ID/Hint : MP3
Duration : 1 h 24 min
Bit rate mode : Constant
Bit rate : 128 kb/s
Channel(s) : 2 channels
Sampling rate : 48.0 kHz
Compression mode : Lossy
Stream size : 77.4 MiB (11%)
Alignment : Aligned on interleaves
Interleave, duration : 40 ms (1.00 video frame)
Interleave, preload duratio : 504 ms

[You must be registered and logged in to see this image.]
Kód:
https://data.hu/get/10305803/A_bubajos.001
https://data.hu/get/10305808/A_bubajos.002
https://data.hu/get/10305804/A_bubajos.003
https://data.hu/get/10305807/A_bubajos.004
https://data.hu/get/10305806/A_bubajos.crc

[You must be registered and logged in to see this image.]
Kód:
https://data.hu/get/10305805/A_bubajos.zip
Vissza az elejére Go down
http://androidapk.freewebhosts.pw/phpbb/
 
A Bűbájos (The Good Witch) 2008 DvDRip XviD HUN
Előző téma megtekintése Következő téma megtekintése Vissza az elejére 
1 / 1 oldal

Permissions in this forum:Nem válaszolhatsz egy témára ebben a fórumban.
Antika és Fidel36 oldala :: --==LETÖLTÉSEK==-- :: Filmek :: DivX Hun Filmek-
Ugrás: