Antika és Fidel36 oldala
Üdvözöllek az oldalon!

Az oldal teljes tartalmának megtekintéséhez regisztrációra van szükség.

Az oldalon minden teljesen ingyenes



 
HomeGy.I.K.RegisztrációBelépés
Ki van itt?
Jelenleg 10 felhasználó van itt :: 0 regisztrált, 0 rejtett és 10 vendég :: 2 Bots

nincsen

A legtöbb felhasználó (84 fő) 2011-09-06, 04:35-kor volt itt.
Most active topic starters
lasavn
 
tonyanh
 
rollroy
 
anhxxx
 
joe204
 
pentium11
 
Marmax
 
SZIGO
 
titmit
 
tokalso
 
Statistics
Összesen 43649 regisztrált felhasználónk van.
Legújabb regisztrált tagunk: BogLi

Jelenleg összesen 269985 hozzászólás olvasható. in 142150 subjects
Social bookmarking
Social bookmarking Digg  Social bookmarking Delicious  Social bookmarking Reddit  Social bookmarking Stumbleupon  Social bookmarking Slashdot  Social bookmarking Yahoo  Social bookmarking Google  Social bookmarking Blinklist  Social bookmarking Blogmarks  Social bookmarking Technorati  

Bookmark and share the address of antika és fidel36 oldala on your social bookmarking website

Bookmark and share the address of Antika és Fidel36 oldala on your social bookmarking website
Reklámok/Toplist
web site traffic statistics Flag Counter
Latest topics

Share | 
 

 A félszemű (True Grit) 2010 DVDRip

Előző téma megtekintése Következő téma megtekintése Go down 
SzerzőÜzenet
bubus66



Nem : Male Hozzászólások száma : 1334
Születésnapod : 1966. Aug. 11.
Regisztrált: : 2014. Apr. 16.

TémanyitásTéma: A félszemű (True Grit) 2010 DVDRip   2017-01-29, 20:55

A félszemű (True Grit) 2010 DVDRip
színes, magyarul beszélő, amerikai western, 106 perc, (16)

[You must be registered and logged in to see this image.]
[You must be registered and logged in to see this image.]

Stáb:
rendező: Joel Coen, Ethan Coen
író: Charles Portis
forgatókönyvíró: Joel Coen, Ethan Coen
producer: Ethan Coen, Joel Coen, Scott Rudin, Steven Spielberg
ügyvezető producer: David Ellison, Megan Ellison, Robert Graf, Paul Schwake
zeneszerző: Carter Burwell
operatőr: Roger Deakins
jelmeztervező: Mary Zophres
vágó: Ethan Coen, Joel Coen


Szereplő(k):
Jeff Bridges (Reuben J. Cogburn rendőrbíró)
Hailee Steinfeld (Mattie Ross)
Matt Damon (La Boeuf)
Josh Brolin (Tom Chaney)
Barry Pepper ('Lucky' Ned Pepper)
Domhnall Gleeson (Moon)
Elizabeth Marvel (a felnőtt Mattie Ross)
Leon Russom (seriff)
Nicholas Sadler (Sullivan)


Tartalom:
A tizennégy éves Mattie Ross apját hidegvérrel lelőtte a gyáva Tom Chaney és a lány eltökéli, hogy az igazságszolgáltatás kezére adja a bűnöst. Segítséget kér az iszákos, hamar a fegyveréhez kapó békebírótól, Rooster Cogburn-től. Ketten nekivágnak - a férfi tiltakozása ellenére -, hogy levadásszák Chaney-t. Az apja vére azt diktálja Mattie-nak, hogy a bűnözőt az indiánok földjén át is üldözze és megtalálja őt a LeBouef nevű texasi ranger előtt aki egy másik férfi meggyilkolása miatt vinné Chaney-t Texasba.


General
Complete name : A félszemű (True Grit) 2010.avi
Format : AVI
Format/Info : Audio Video Interleave
File size : 1.46 GiB
Duration : 1 h 50 min
Overall bit rate : 1 893 kb/s
Writing application : VirtualDubMod 1.5.10.3 | [You must be registered and logged in to see this link.] || (build 2550/release)
Writing library : VirtualDubMod build 2550/release

Video
ID : 0
Format : MPEG-4 Visual
Format profile : Advanced Simple@L5
Format settings, BVOP : 1
Format settings, QPel : No
Format settings, GMC : No warppoints
Format settings, Matrix : Default (MPEG)
Codec ID : XVID
Codec ID/Hint : XviD
Duration : 1 h 50 min
Bit rate : 1 436 kb/s
Width : 720 pixels
Height : 304 pixels
Display aspect ratio : 2.35:1
Frame rate : 23.976 (24000/1001) FPS
Color space : YUV
Chroma subsampling : 4:2:0
Bit depth : 8 bits
Scan type : Progressive
Compression mode : Lossy
Bits/(Pixel*Frame) : 0.274
Stream size : 1.11 GiB (76%)
Writing library : XviD 63

Audio
ID : 1
Format : AC-3
Format/Info : Audio Coding 3
Mode extension : CM (complete main)
Format settings, Endianness : Big
Codec ID : 2000
Duration : 1 h 50 min
Bit rate mode : Constant
Bit rate : 448 kb/s
Channel(s) : 6 channels
Channel positions : Front: L C R, Side: L R, LFE
Sampling rate : 48.0 kHz
Frame rate : 31.250 FPS (1536 spf)
Bit depth : 16 bits
Compression mode : Lossy
Stream size : 354 MiB (24%)
Alignment : Split accross interleaves
Interleave, duration : 42 ms (1.00 video frame)
Interleave, preload duratio : 500 ms

[You must be registered and logged in to see this image.]
Kód:
http://data.hu/get/10282825/A_felszemu_True_Grit_2010.001
http://data.hu/get/10282832/A_felszemu_True_Grit_2010.002
http://data.hu/get/10282826/A_felszemu_True_Grit_2010.003
http://data.hu/get/10282823/A_felszemu_True_Grit_2010.004
http://data.hu/get/10282824/A_felszemu_True_Grit_2010.005
http://data.hu/get/10282827/A_felszemu_True_Grit_2010.006
http://data.hu/get/10282828/A_felszemu_True_Grit_2010.007
http://data.hu/get/10282833/A_felszemu_True_Grit_2010.008
http://data.hu/get/10282830/A_felszemu_True_Grit_2010.crc

[You must be registered and logged in to see this image.]
Kód:
http://data.hu/get/10282829/A_felszemu_True_Grit_2010.zip
Vissza az elejére Go down
http://androidapk.freewebhosts.pw/phpbb/
 
A félszemű (True Grit) 2010 DVDRip
Előző téma megtekintése Következő téma megtekintése Vissza az elejére 
1 / 1 oldal

Permissions in this forum:Nem válaszolhatsz egy témára ebben a fórumban.
Antika és Fidel36 oldala :: --==LETÖLTÉSEK==-- :: Filmek :: DivX Hun Filmek-
Ugrás: