Antika és Fidel36 oldala
Üdvözöllek az oldalon!

Az oldal teljes tartalmának megtekintéséhez regisztrációra van szükség.

Az oldalon minden teljesen ingyenes



 
HomeGy.I.K.RegisztrációBelépés
Ki van itt?
Jelenleg 12 felhasználó van itt :: 1 regisztrált, 0 rejtett és 11 vendég :: 1 Bot

titmit

A legtöbb felhasználó (84 fő) 2011-09-06, 04:35-kor volt itt.
Most active topic starters
rollroy
 
anhxxx
 
lasavn
 
titmit
 
tonyanh
 
buneo
 
joe204
 
Marmax
 
pentium11
 
mitsumi
 
Statistics
Összesen 46838 regisztrált felhasználónk van.
Legújabb felhasználó: witya7

Jelenleg összesen 445327 hozzászólás olvasható. in 288183 subjects
Social bookmarking
Social bookmarking Digg  Social bookmarking Delicious  Social bookmarking Reddit  Social bookmarking Stumbleupon  Social bookmarking Slashdot  Social bookmarking Yahoo  Social bookmarking Google  Social bookmarking Blinklist  Social bookmarking Blogmarks  Social bookmarking Technorati  

Bookmark and share the address of antika és fidel36 oldala on your social bookmarking website

Bookmark and share the address of Antika és Fidel36 oldala on your social bookmarking website
Reklámok/Toplist
web site traffic statistics Flag Counter
Latest topics

Share | 
 

 A kőszívű ember fiai 1964 DVDRip

Előző téma megtekintése Következő téma megtekintése Go down 
SzerzőÜzenet
bubus66

avatar

Nem : Male Hozzászólások száma : 1469
Születésnapod : 1966. Aug. 11.
Regisztrált: : 2014. Apr. 16.

TémanyitásTárgy: A kőszívű ember fiai 1964 DVDRip   2017-01-29, 20:43

A kőszívű ember fiai 1964 DVDRip
színes, magyar filmdráma, 140 perc, (12)

[You must be registered and logged in to see this image.]
[You must be registered and logged in to see this image.]

Stáb:
rendező: Várkonyi Zoltán
író: Jókai Mór
forgatókönyvíró: Erdődy János
zeneszerző: Farkas Ferenc
operatőr: Hildebrand István
díszlettervező: Zeichán Béla
dramaturg: Fehér Imre
jelmeztervező: Láng Rudolf
vágó: Kerényi Zoltán

szereplő(k):
Sulyok Mária (Baradlay Kázmérné)
Bitskey Tibor (Baradlay Ödön)
Mécs Károly (Baradlay Richárd)
Tordy Géza (Baradlay Jenő)
Béres Ilona (Alfonsine)
Bujtor István (Leonyid)
Básti Lajos (Rideghváry Bence)
Major Tamás (Baradlay Kázmér)
Szemere Vera (Plankenhorst Antoinette)
Bessenyei Ferenc
Nagy Attila
Bárdy György
Koncz Gábor
Polónyi Gyöngyi
Kálmán György
Várkonyi Zoltán
Barsi Béla
Páger Antal
Ladányi Ferenc

Tartalom

A császárpárti Baradlay Kázmér özvegye, szembeszegülve férje végakaratával, jó magyarnak, boldog embernek szeretné látni a fiait. Hazahívja legidősebb fiát, Ödönt Pétervárról, Richardot és Jenőt Bécsből. Kitört a forradalom. A forradalmár lelkületű Baradlayné biztatására fiai apjuk végakarata ellenére, 1848 ügye mellé állnak. A leggyengébbnek tűnő, fényes pálya előtt álló Jenő a szabadságharc leverése után az életét is feláldozza bátyjaiért.

General
Complete name : A kőszívű ember fiai.avi
Format : AVI
Format/Info : Audio Video Interleave
File size : 1.36 GiB
Duration : 2 h 38 min
Overall bit rate : 1 234 kb/s
Writing library : VirtualDub build 32817/release

Video
ID : 0
Format : MPEG-4 Visual
Format profile : Advanced Simple@L5
Format settings, BVOP : 1
Format settings, QPel : No
Format settings, GMC : No warppoints
Format settings, Matrix : Default (MPEG)
Muxing mode : Packed bitstream
Codec ID : XVID
Codec ID/Hint : XviD
Duration : 2 h 38 min
Bit rate : 840 kb/s
Width : 640 pixels
Height : 256 pixels
Display aspect ratio : 2.500
Frame rate : 25.000 FPS
Color space : YUV
Chroma subsampling : 4:2:0
Bit depth : 8 bits
Scan type : Progressive
Compression mode : Lossy
Bits/(Pixel*Frame) : 0.205
Stream size : 950 MiB (68%)
Writing library : XviD 1.2.0.dev47 (UTC 2006-11-01)

Audio
ID : 1
Format : AC-3
Format/Info : Audio Coding 3
Mode extension : CM (complete main)
Format settings, Endianness : Big
Codec ID : 2000
Duration : 2 h 38 min
Bit rate mode : Constant
Bit rate : 384 kb/s
Channel(s) : 2 channels
Channel positions : Front: L R
Sampling rate : 48.0 kHz
Frame rate : 31.250 FPS (1536 spf)
Bit depth : 16 bits
Compression mode : Lossy
Stream size : 434 MiB (31%)
Alignment : Split accross interleaves
Interleave, duration : 40 ms (1.00 video frame)
Interleave, preload duratio : 1000 ms

[You must be registered and logged in to see this image.]
Kód:
http://data.hu/get/10260830/A_koszivu_ember_fiai.001
http://data.hu/get/10260829/A_koszivu_ember_fiai.002
http://data.hu/get/10260825/A_koszivu_ember_fiai.003
http://data.hu/get/10260827/A_koszivu_ember_fiai.004
http://data.hu/get/10260834/A_koszivu_ember_fiai.005
http://data.hu/get/10260831/A_koszivu_ember_fiai.006
http://data.hu/get/10260832/A_koszivu_ember_fiai.007
http://data.hu/get/10260833/A_koszivu_ember_fiai.crc

[You must be registered and logged in to see this image.]
Kód:
http://data.hu/get/10260826/A_koszivu_ember_fiai.zip
Vissza az elejére Go down
http://androidapk.freewebhosts.pw/phpbb/
 
A kőszívű ember fiai 1964 DVDRip
Előző téma megtekintése Következő téma megtekintése Vissza az elejére 
1 / 1 oldal
 Similar topics
-
» Okosságok, érdekességek, idézetek, fura mondások

Permissions in this forum:Nem válaszolhatsz egy témára ebben a fórumban.
Antika és Fidel36 oldala :: --==LETÖLTÉSEK==-- :: Filmek :: DivX Hun Filmek-
Ugrás: