Antika és Fidel36 oldala
Üdvözöllek az oldalon!

Az oldal teljes tartalmának megtekintéséhez regisztrációra van szükség.

Az oldalon minden teljesen ingyenes



 
HomeGy.I.K.RegisztrációBelépés
Ki van itt?
Jelenleg 9 felhasználó van itt :: 0 regisztrált, 0 rejtett és 9 vendég :: 1 Bot

nincsen

A legtöbb felhasználó (84 fő) 2011-09-06, 04:35-kor volt itt.
Most active topic starters
lasavn
 
tonyanh
 
rollroy
 
anhxxx
 
joe204
 
pentium11
 
Marmax
 
SZIGO
 
titmit
 
tokalso
 
Statistics
Összesen 43649 regisztrált felhasználónk van.
Legújabb regisztrált tagunk: BogLi

Jelenleg összesen 269985 hozzászólás olvasható. in 142150 subjects
Social bookmarking
Social bookmarking Digg  Social bookmarking Delicious  Social bookmarking Reddit  Social bookmarking Stumbleupon  Social bookmarking Slashdot  Social bookmarking Yahoo  Social bookmarking Google  Social bookmarking Blinklist  Social bookmarking Blogmarks  Social bookmarking Technorati  

Bookmark and share the address of antika és fidel36 oldala on your social bookmarking website

Bookmark and share the address of Antika és Fidel36 oldala on your social bookmarking website
Reklámok/Toplist
web site traffic statistics Flag Counter
Latest topics

Share | 
 

 A becsület lovagjai (Outcast) 2014 BDRip

Előző téma megtekintése Következő téma megtekintése Go down 
SzerzőÜzenet
bubus66



Nem : Male Hozzászólások száma : 1334
Születésnapod : 1966. Aug. 11.
Regisztrált: : 2014. Apr. 16.

TémanyitásTéma: A becsület lovagjai (Outcast) 2014 BDRip   2017-01-19, 06:03

A becsület lovagjai (Outcast) 2014 BDRip
színes, szinkronizált amerikai-francia kalandfilm, 99perc, (12)

[You must be registered and logged in to see this image.]
[You must be registered and logged in to see this image.]

Stáb:
rendező: Nick Powell
forgatókönyvíró: James Dormer
producer: Jeremy Bolt, Tove Christensen, Léonard Glowinski, Gary Hamilton, Alan Zhang Lun, Karine Martin, Christopher Milburn, George Mizen, Ying Ye, Mia Zhang, Xun Zhang
ügyvezető producer: Mark Canton, Marc Charette, Jean-François Doray, Mike Gabrawy, Qiyan Li, Andrew Mann, Mark Slone
zeneszerző: Guillaume Roussel
operatőr: Joel Ransom
vágó: Olivier Gourlay, Nicolas Trembasiewicz

Szereplő(k):

Nicolas Cage (Gallain)
Hayden Christensen (Jacob)
Andy On (Shing)
Yifei Liu (Lian)
Fernando Chien (Wu)
Anoja Dias Bolt (Anika)
Byron Lawson (Peng)
Lixin Zhao (Qiang)
Simon Chin (Bao)

Tartalom:
Egy rejtélyes harcos szövetkezik egy bukott kínai császár lányával és fiával, hogy együtt győzzék le azok kegyetlen bátyját, mert ő az aki holtan akarja látni őket.

General
Complete name : a_becsulet_lovagjai2014.avi
Format : AVI
Format/Info : Audio Video Interleave
Format profile : OpenDML
File size : 1.25 GiB
Duration : 1 h 38 min
Overall bit rate : 1 816 kb/s
Writing application : Lavf54.63.104

Video
ID : 0
Format : AVC
Format/Info : Advanced Video Codec
Format profile : Main@L3
Format settings, CABAC : Yes
Format settings, ReFrames : 1 frame
Codec ID : H264
Duration : 1 h 38 min
Bit rate : 1 565 kb/s
Width : 720 pixels
Height : 308 pixels
Display aspect ratio : 2.35:1
Frame rate mode : Variable
Frame rate : 23.976 (24000/1001) FPS
Color space : YUV
Chroma subsampling : 4:2:0
Bit depth : 8 bits
Scan type : Progressive
Bits/(Pixel*Frame) : 0.294
Stream size : 1.06 GiB (85%)
Writing library : x264

Audio
ID : 1
Format : MPEG Audio
Format version : Version 1
Format profile : Layer 3
Mode : Joint stereo
Mode extension : MS Stereo
Codec ID : 55
Codec ID/Hint : MP3
Duration : 1 h 38 min
Bit rate mode : Constant
Bit rate : 256 kb/s
Channel(s) : 2 channels
Sampling rate : 48.0 kHz
Compression mode : Lossy
Stream size : 181 MiB (14%)
Alignment : Aligned on interleaves
Interleave, duration : 24 ms (0.58 video frame)

[You must be registered and logged in to see this image.]
Kód:
http://data.hu/get/10261013/bdrip_a_becsulet_lovagjai2014.001
http://data.hu/get/10261019/bdrip_a_becsulet_lovagjai2014.002
http://data.hu/get/10261018/bdrip_a_becsulet_lovagjai2014.003
http://data.hu/get/10261015/bdrip_a_becsulet_lovagjai2014.004
http://data.hu/get/10261016/bdrip_a_becsulet_lovagjai2014.005
http://data.hu/get/10261021/bdrip_a_becsulet_lovagjai2014.006
http://data.hu/get/10261020/bdrip_a_becsulet_lovagjai2014.007
http://data.hu/get/10261017/bdrip_a_becsulet_lovagjai2014.crc

[You must be registered and logged in to see this image.]
Kód:
http://data.hu/get/10261014/bdrip_a_becsulet_lovagjai2014.zip
Vissza az elejére Go down
http://androidapk.freewebhosts.pw/phpbb/
 
A becsület lovagjai (Outcast) 2014 BDRip
Előző téma megtekintése Következő téma megtekintése Vissza az elejére 
1 / 1 oldal

Permissions in this forum:Nem válaszolhatsz egy témára ebben a fórumban.
Antika és Fidel36 oldala :: --==LETÖLTÉSEK==-- :: Filmek :: DivX Hun Filmek-
Ugrás: