Antika és Fidel36 oldala
Üdvözöllek az oldalon!

Az oldal teljes tartalmának megtekintéséhez regisztrációra van szükség.

Az oldalon minden teljesen ingyenes



 
HomeGy.I.K.RegisztrációBelépés
Ki van itt?
Jelenleg 14 felhasználó van itt :: 2 regisztrált, 0 rejtett és 12 vendég :: 2 Bots

rollroy, titmit

A legtöbb felhasználó (84 fő) 2011-09-06, 04:35-kor volt itt.
Most active topic starters
lasavn
 
rollroy
 
tonyanh
 
anhxxx
 
joe204
 
pentium11
 
titmit
 
Marmax
 
SZIGO
 
almaro
 
Statistics
Összesen 44000 regisztrált felhasználónk van.
Legújabb regisztrált tagunk: Linda2002

Jelenleg összesen 280416 hozzászólás olvasható. in 150993 subjects
Social bookmarking
Social bookmarking Digg  Social bookmarking Delicious  Social bookmarking Reddit  Social bookmarking Stumbleupon  Social bookmarking Slashdot  Social bookmarking Yahoo  Social bookmarking Google  Social bookmarking Blinklist  Social bookmarking Blogmarks  Social bookmarking Technorati  

Bookmark and share the address of antika és fidel36 oldala on your social bookmarking website

Bookmark and share the address of Antika és Fidel36 oldala on your social bookmarking website
Reklámok/Toplist
web site traffic statistics Flag Counter
Latest topics

Share | 
 

 A Világ Legjobb Apja ( World's greatest Dad ) 2009 DVDRip

Előző téma megtekintése Következő téma megtekintése Go down 
SzerzőÜzenet
bubus66

avatar

Nem : Male Hozzászólások száma : 1368
Születésnapod : 1966. Aug. 11.
Regisztrált: : 2014. Apr. 16.

TémanyitásTéma: A Világ Legjobb Apja ( World's greatest Dad ) 2009 DVDRip   2017-01-19, 05:57

[size5]A Világ Legjobb Apja ( World's greatest Dad ) 2009 DVDRip
Színes , szinkronizált amerikai vígjáték 96 perc ( 16 )[/size]

[You must be registered and logged in to see this image.]
[You must be registered and logged in to see this image.]

Stáb:
RENDEZŐ: Bobcat Goldthwait
FORGATÓKÖNYVÍRÓ: Bobcat Goldthwait

Szereplő(k):
Robin Williams ( Lance )
Daryl Sabara ( Kyle Clayton )
Alexie Gilmore ( Claire )
Henry Simmons ( Mike Lane )
Evan Martin ( Andrew )

Tartalom:
Lance Clayton mindig arról álmodozott, hogy egyszer gazdag és híres író lesz belőle. Ehhez képest irodalomtanárként dolgozik az egyik középiskolában, és egyedül neveli a fiát. Egyetlen gyermeke, Kyle elviselhetetlen figura, aki mindenkit utál, az apját is beleértve. Lance az iskola imádnivaló rajztanárával, Claire-rel randevúzik, de a nő nem akar komoly kapcsolatba belemenni, ráadásul a randijukat is titkolja mások előtt. Lance fia furcsa balesetet szenved, ám a tragédia egyben nagy lehetőségét is kínál az apa számára. Megkaphat mindent, amire vágyott, a hírnevet, a népszerűséget, de milyen áron?
General
Unique ID : 207588097782130710943093880173108653545 (0x9C2C036BAC1CAFEBA3E32374DCB3EDE9)
Complete name : A_Világ_legjobb_apja_2009_Premium.mkv
Format : Matroska
Format version : Version 4 / Version 2
File size : 824 MiB
Duration : 1 h 38 min
Overall bit rate : 1 167 kb/s
Movie name : Worlds.Greatest.Dad.2009.Custom.BDRip.x264.HUN-MDC
Encoded date : UTC 2015-05-02 15:23:49
Writing application : mkvmerge v7.8.0 ('River Man') 64bit built on Mar 27 2015 16:31:37
Writing library : libebml v1.3.1 + libmatroska v1.4.2

Video
ID : 1
Format : AVC
Format/Info : Advanced Video Codec
Format profile : High@L4.1
Format settings, CABAC : Yes
Format settings, ReFrames : 12 frames
Codec ID : V_MPEG4/ISO/AVC
Duration : 1 h 38 min
Bit rate : 973 kb/s
Width : 720 pixels
Height : 390 pixels
Display aspect ratio : 1.85:1
Frame rate mode : Constant
Frame rate : 23.976 (24000/1001) FPS
Color space : YUV
Chroma subsampling : 4:2:0
Bit depth : 8 bits
Scan type : Progressive
Bits/(Pixel*Frame) : 0.145
Stream size : 687 MiB (83%)
Writing library : x264
Default : Yes
Forced : No
Color range : Limited
Color primaries : BT.709
Transfer characteristics : BT.709
Matrix coefficients : BT.709

Audio
ID : 2
Format : AC-3
Format/Info : Audio Coding 3
Mode extension : CM (complete main)
Format settings, Endianness : Big
Codec ID : A_AC3
Duration : 1 h 38 min
Bit rate mode : Constant
Bit rate : 192 kb/s
Channel(s) : 2 channels
Channel positions : Front: L R
Sampling rate : 48.0 kHz
Frame rate : 31.250 FPS (1536 spf)
Bit depth : 16 bits
Compression mode : Lossy
Stream size : 136 MiB (16%)
Language : Hungarian
Default : Yes
Forced : No

Text
ID : 3
Format : UTF-8
Codec ID : S_TEXT/UTF8
Codec ID/Info : UTF-8 Plain Text
Duration : 1 h 33 min
Bit rate : 64 b/s
Count of elements : 1535
Stream size : 44.1 KiB (0%)
Title : full
Language : Hungarian
Default : No
Forced : No

[You must be registered and logged in to see this image.]
Kód:
http://data.hu/get/10260980/A_Vilag_legjobb_apja_2009_Premium.001
http://data.hu/get/10260978/A_Vilag_legjobb_apja_2009_Premium.002
http://data.hu/get/10260983/A_Vilag_legjobb_apja_2009_Premium.003
http://data.hu/get/10260977/A_Vilag_legjobb_apja_2009_Premium.004
http://data.hu/get/10260979/A_Vilag_legjobb_apja_2009_Premium.005
http://data.hu/get/10260981/A_Vilag_legjobb_apja_2009_Premium.crc

[You must be registered and logged in to see this image.]
Kód:
http://data.hu/get/10260982/A_Vilag_legjobb_apja_2009_Premium.zip
Vissza az elejére Go down
http://androidapk.freewebhosts.pw/phpbb/
 
A Világ Legjobb Apja ( World's greatest Dad ) 2009 DVDRip
Előző téma megtekintése Következő téma megtekintése Vissza az elejére 
1 / 1 oldal
 Similar topics
-
» Én és a világ
» Milyen jövő vár az emberiségre, a földi ökoszisztémára, az életre?

Permissions in this forum:Nem válaszolhatsz egy témára ebben a fórumban.
Antika és Fidel36 oldala :: --==LETÖLTÉSEK==-- :: Filmek :: DivX Hun Filmek-
Ugrás: