Antika és Fidel36 oldala
Üdvözöllek az oldalon!

Az oldal teljes tartalmának megtekintéséhez regisztrációra van szükség.

Az oldalon minden teljesen ingyenes



 
HomeGy.I.K.RegisztrációBelépés
Ki van itt?
Jelenleg 8 felhasználó van itt :: 3 regisztrált, 0 rejtett és 5 vendég :: 2 Bots

anhxxx, missem, rollroy

A legtöbb felhasználó (84 fő) 2011-09-06, 04:35-kor volt itt.
Most active topic starters
rollroy
 
lasavn
 
anhxxx
 
tonyanh
 
titmit
 
joe204
 
pentium11
 
Marmax
 
SZIGO
 
buneo
 
Statistics
Összesen 45174 regisztrált felhasználónk van.
Legújabb regisztrált tagunk: Bettina91

Jelenleg összesen 361595 hozzászólás olvasható. in 214423 subjects
Social bookmarking
Social bookmarking Digg  Social bookmarking Delicious  Social bookmarking Reddit  Social bookmarking Stumbleupon  Social bookmarking Slashdot  Social bookmarking Yahoo  Social bookmarking Google  Social bookmarking Blinklist  Social bookmarking Blogmarks  Social bookmarking Technorati  

Bookmark and share the address of antika és fidel36 oldala on your social bookmarking website

Bookmark and share the address of Antika és Fidel36 oldala on your social bookmarking website
Reklámok/Toplist
web site traffic statistics Flag Counter
Latest topics

Share | 
 

 Vegasi vakáció (Vegas Vacation) 1997 DVDRip

Előző téma megtekintése Következő téma megtekintése Go down 
SzerzőÜzenet
bubus66

avatar

Nem : Male Hozzászólások száma : 1456
Születésnapod : 1966. Aug. 11.
Regisztrált: : 2014. Apr. 16.

TémanyitásTéma: Vegasi vakáció (Vegas Vacation) 1997 DVDRip   2017-01-13, 21:38

Vegasi vakáció (Vegas Vacation) 1997 DVDRip
színes, magyarul beszélő, amerikai vígjáték, 93 perc, (12)

[You must be registered and logged in to see this image.]
[You must be registered and logged in to see this image.]

Stáb:
rendező: Stephen Kessler
író: Elisa Bell, Bob Ducsay
forgatókönyvíró: Elisa Bell
producer: Jerry Weintraub
ügyvezető producer: Susan Ekins, Matty Simmons
zeneszerző: Joel McNeely
operatőr: William A. Fraker
látványtervező: David L. Snyder
vágó: Seth Flaum


Szereplő(k):
Chevy Chase (Clark Wilhelm Griswold)
Beverly D'Angelo (Ellen Griswold)
Randy Quaid (Cousin Eddie)
Ethan Embry (Russell 'Rusty' Griswold)
Marisol Nichols (Audrey Griswold)
Wayne Newton (önmaga)
Jerry Weintraub (Jilly)
Miriam Flynn (Cousin Catherine)


Tartalom:
Griswold ismét nyaralni viszi a családját, ezúttal Las Vegas-ba mennek. A sivatag közepén elterülő neonfényben úszó város azonban nemcsak a szerencsejátékok, hanem a bűnök és csábítások ördögi központja is. A család minden tagját rabul ejtik a bűnös városban kísértő szerencselovagok. A papa le is ragad egy játékasztalnál ahol az egész családi vagyont el lehet verni. A veszteségek összehozzák Clark-ot egy másik megkopasztott család tagjaival és együtt keresnek kiutat. Ha Las Vegas átverte őket, ők is átverik Las Vegas-t.

General
Complete name : Vegasi vakáció (Vegas Vacation) 1997.avi
Format : AVI
Format/Info : Audio Video Interleave
File size : 1.14 GiB
Duration : 1 h 34 min
Overall bit rate : 1 727 kb/s
Writing application : FairUse Wizard - [You must be registered and logged in to see this link.]
Writing library : The best and REALLY easy backup tool

Video
ID : 0
Format : MPEG-4 Visual
Format profile : Advanced Simple@L5
Format settings, BVOP : 1
Format settings, QPel : No
Format settings, GMC : No warppoints
Format settings, Matrix : Default (MPEG)
Muxing mode : Packed bitstream
Codec ID : XVID
Codec ID/Hint : XviD
Duration : 1 h 34 min
Bit rate : 1 526 kb/s
Width : 688 pixels
Height : 384 pixels
Display aspect ratio : 16:9
Frame rate : 23.976 (24000/1001) FPS
Color space : YUV
Chroma subsampling : 4:2:0
Bit depth : 8 bits
Scan type : Progressive
Compression mode : Lossy
Bits/(Pixel*Frame) : 0.241
Stream size : 1.01 GiB (88%)
Writing library : XviD 1.2.0.dev47 (UTC 2006-11-01)

Audio
ID : 1
Format : MPEG Audio
Format version : Version 1
Format profile : Layer 3
Mode : Joint stereo
Mode extension : MS Stereo
Codec ID : 55
Codec ID/Hint : MP3
Duration : 1 h 34 min
Bit rate mode : Constant
Bit rate : 192 kb/s
Channel(s) : 2 channels
Sampling rate : 48.0 kHz
Compression mode : Lossy
Stream size : 130 MiB (11%)
Alignment : Aligned on interleaves
Interleave, duration : 42 ms (1.00 video frame)
Interleave, preload duratio : 504 ms
Writing library : LAME3.97
Encoding settings : -m j -V 4 -q 2 -lowpass 18.6 -b 192

[You must be registered and logged in to see this image.]
Kód:
http://data.hu/get/10245870/Vegasi_vakacio_Vegas_Vacation_1997.001
http://data.hu/get/10245868/Vegasi_vakacio_Vegas_Vacation_1997.002
http://data.hu/get/10245869/Vegasi_vakacio_Vegas_Vacation_1997.003
http://data.hu/get/10245865/Vegasi_vakacio_Vegas_Vacation_1997.004
http://data.hu/get/10245860/Vegasi_vakacio_Vegas_Vacation_1997.005
http://data.hu/get/10245867/Vegasi_vakacio_Vegas_Vacation_1997.006
http://data.hu/get/10245866/Vegasi_vakacio_Vegas_Vacation_1997.crc

[You must be registered and logged in to see this image.]
Kód:
http://data.hu/get/10245864/Vegasi_vakacio_Vegas_Vacation_1997.zip
Vissza az elejére Go down
http://androidapk.freewebhosts.pw/phpbb/
 
Vegasi vakáció (Vegas Vacation) 1997 DVDRip
Előző téma megtekintése Következő téma megtekintése Vissza az elejére 
1 / 1 oldal

Permissions in this forum:Nem válaszolhatsz egy témára ebben a fórumban.
Antika és Fidel36 oldala :: --==LETÖLTÉSEK==-- :: Filmek :: DivX Hun Filmek-
Ugrás: