Antika és Fidel36 oldala
Üdvözöllek az oldalon!

Az oldal teljes tartalmának megtekintéséhez regisztrációra van szükség.

Az oldalon minden teljesen ingyenes



 
HomeGy.I.K.RegisztrációBelépés
Ki van itt?
Jelenleg 14 felhasználó van itt :: 4 regisztrált, 0 rejtett és 10 vendég

almaro, anhxxx, missem, rollroy

A legtöbb felhasználó (84 fő) 2011-09-06, 04:35-kor volt itt.
Most active topic starters
rollroy
 
lasavn
 
tonyanh
 
anhxxx
 
titmit
 
joe204
 
pentium11
 
Marmax
 
SZIGO
 
almaro
 
Statistics
Összesen 44698 regisztrált felhasználónk van.
Legújabb regisztrált tagunk: tolmaiel

Jelenleg összesen 319979 hozzászólás olvasható. in 181355 subjects
Social bookmarking
Social bookmarking Digg  Social bookmarking Delicious  Social bookmarking Reddit  Social bookmarking Stumbleupon  Social bookmarking Slashdot  Social bookmarking Yahoo  Social bookmarking Google  Social bookmarking Blinklist  Social bookmarking Blogmarks  Social bookmarking Technorati  

Bookmark and share the address of antika és fidel36 oldala on your social bookmarking website

Bookmark and share the address of Antika és Fidel36 oldala on your social bookmarking website
Reklámok/Toplist
web site traffic statistics Flag Counter
Latest topics

Share | 
 

 A látogató (The Visitor) 2007 DVDRip.AVI

Előző téma megtekintése Következő téma megtekintése Go down 
SzerzőÜzenet
bubus66

avatar

Nem : Male Hozzászólások száma : 1412
Születésnapod : 1966. Aug. 11.
Regisztrált: : 2014. Apr. 16.

TémanyitásTéma: A látogató (The Visitor) 2007 DVDRip.AVI   2017-01-13, 21:32

A látogató (The Visitor) 2007 DVDRip.AVI
színes, magyarul beszélő, amerikai filmdráma, 104 perc, (12)

[You must be registered and logged in to see this image.]
[You must be registered and logged in to see this image.]

Stáb:
rendező: Thomas McCarthy
forgatókönyvíró: Thomas McCarthy
producer: Michael London, Mary Jane Skalski, John Woldenberg
ügyvezető producer: Omar Amanat, Chris Salvaterra, Jeff Skoll, Ricky Strauss
zeneszerző: Jan A.P. Kaczmarek
operatőr: Oliver Bokelberg
vágó: Tom McArdle


Szereplő(k):
Richard Jenkins (Walter Vale professzor)
Haaz Sleiman (Tarek Khalil)
Danai Jekesai Gurira (Zainab)
Hiam Abbass (Mouna Khalil)
Marian Seldes (Barbara)
Maggie Moore (Karen)
Michael Cumpsty (Charles)
Richard Kind (Jacob)
Tzahi Moskovitz (Zev)
Amir Arison (Mr. Shah)
Neal Lerner (Martin Revere)
Waleed Zuaiter (Omar)
Laith Nakli (Nasim)
Walter T. Mudu (Ronald Cole)
Earl Baker Jr. (Lester James)


Tartalom:
Walter Vale magányos egyetemi tanár. Munkája már rég nem hozza lázba, az írástól is elfordult. Szürke hétköznapjai azonban egy csapásra megváltoznak amikor egy konferencia kapcsán New Yorkba utazik és az ottani apartmanjában egy fiatal párost talál akikről hamarosan kiderül, hogy illegálisan tartózkodnak az országban. Tarek és szenegáli barátnője - Zainab - azonnal készek távozni, de Walter szíve megesik rajtuk. A tartózkodásért cserébe Tarek felajánlja Walter-nek, hogy megtanítja játszani az afrikai dobon. A közös zenélésből hamarosan őszinte barátság szövődik és mikor a bevándorlási hivatal letartóztatja Tarek-et, Walter bármire hajlandó, hogy megakadályozza új barátja kitoloncolását.

General
Complete name : A látogató (The Visitor) 2007.avi
Format : AVI
Format/Info : Audio Video Interleave
File size : 1.09 GiB
Duration : 1 h 39 min
Overall bit rate : 1 571 kb/s
Writing application : FairUse Wizard - [You must be registered and logged in to see this link.]
Writing library : The best and REALLY easy backup tool

Video
ID : 0
Format : MPEG-4 Visual
Format profile : Advanced Simple@L5
Format settings, BVOP : 1
Format settings, QPel : No
Format settings, GMC : No warppoints
Format settings, Matrix : Default (MPEG)
Muxing mode : Packed bitstream
Codec ID : XVID
Codec ID/Hint : XviD
Duration : 1 h 39 min
Bit rate : 1 177 kb/s
Width : 688 pixels
Height : 368 pixels
Display aspect ratio : 1.85:1
Frame rate : 25.000 FPS
Color space : YUV
Chroma subsampling : 4:2:0
Bit depth : 8 bits
Scan type : Progressive
Compression mode : Lossy
Bits/(Pixel*Frame) : 0.186
Stream size : 838 MiB (75%)
Writing library : XviD 1.2.1 (UTC 2008-12-04)

Audio
ID : 1
Format : AC-3
Format/Info : Audio Coding 3
Mode extension : CM (complete main)
Format settings, Endianness : Big
Codec ID : 2000
Duration : 1 h 39 min
Bit rate mode : Constant
Bit rate : 384 kb/s
Channel(s) : 6 channels
Channel positions : Front: L C R, Side: L R, LFE
Sampling rate : 48.0 kHz
Frame rate : 31.250 FPS (1536 spf)
Bit depth : 16 bits
Compression mode : Lossy
Stream size : 273 MiB (24%)
Alignment : Split accross interleaves
Interleave, duration : 40 ms (1.00 video frame)
Interleave, preload duratio : 500 ms

[You must be registered and logged in to see this image.]
Kód:
http://data.hu/get/10245668/A_latogato_The_Visitor_2007.001
http://data.hu/get/10245664/A_latogato_The_Visitor_2007.002
http://data.hu/get/10245665/A_latogato_The_Visitor_2007.003
http://data.hu/get/10245659/A_latogato_The_Visitor_2007.004
http://data.hu/get/10245663/A_latogato_The_Visitor_2007.005
http://data.hu/get/10245666/A_latogato_The_Visitor_2007.006
http://data.hu/get/10245658/A_latogato_The_Visitor_2007.crc

[You must be registered and logged in to see this image.]
Kód:
http://data.hu/get/10245662/A_latogato_The_Visitor_2007.zip


Vissza az elejére Go down
http://androidapk.freewebhosts.pw/phpbb/
 
A látogató (The Visitor) 2007 DVDRip.AVI
Előző téma megtekintése Következő téma megtekintése Vissza az elejére 
1 / 1 oldal

Permissions in this forum:Nem válaszolhatsz egy témára ebben a fórumban.
Antika és Fidel36 oldala :: --==LETÖLTÉSEK==-- :: Filmek :: DivX Hun Filmek-
Ugrás: